Drum N Bass

Master saleem new mp4 =[BonVD]=

  • Download 5x Faster
  • Download torrent
  • Direct Download
  • Rate this torrent +  |  -
Master saleem new mp4 =[BonVD]=

Download FREE And Anonymously


Torrent info

Name:Master saleem new mp4 =[BonVD]=

Total Size: 13.72 MB

Magnet: Magnet Link

Seeds: 0

Leechers: 0

Stream: Watch Full Movie @ Movie4u

Last Updated: 2018-04-04 15:05:12 (Update Now)

Torrent added: 2009-11-22 08:02:02



CyberGhost VPN For Torrents

Torrent Files List


master sleem new.mp4 (Size: 13.72 MB) (Files: 1)

 master sleem new.mp4

13.72 MB
 

tracker

leech seeds
 

Torrent description

General
Complete name : D:\File Hosting\MUSIC\master sleem new.mp4
Format : MPEG-4
Format profile : Base Media / Version 2
Codec ID : mp42
File size : 13.7 MiB
Duration : 3mn 9s
Overall bit rate : 608 Kbps
Encoded date : UTC 2009-10-14 06:41:32
Tagged date : UTC 2009-10-14 06:41:32
gsst : 0
gstd : 190008
gssd : B4A7DD385

Video
ID : 2
Format : AVC
Format/Info : Advanced Video Codec
Format profile : [email protected]
Format settings, CABAC : No
Format settings, ReFrames : 1 frame
Codec ID : avc1
Codec ID/Info : Advanced Video Coding
Duration : 3mn 9s
Bit rate mode : Variable
Bit rate : 483 Kbps
Maximum bit rate : 973 Kbps
Width : 480 pixels
Height : 360 pixels
Display aspect ratio : 4:3
Frame rate mode : Constant
Frame rate : 30.000 fps
Resolution : 24 bits
Colorimetry : 4:2:0
Scan type : Progressive
Bits/(Pixel*Frame) : 0.093
Stream size : 10.9 MiB (80%)
Title : (C) 2007 Google Inc. v08.13.2007.
Encoded date : UTC 2009-10-14 06:41:33
Tagged date : UTC 2009-10-14 06:41:33

Audio
ID : 1
Format : AAC
Format/Info : Advanced Audio Codec
Format version : Version 4
Format profile : LC
Format settings, SBR : No
Codec ID : 40
Duration : 3mn 9s
Bit rate mode : Variable
Bit rate : 121 Kbps
Maximum bit rate : 282 Kbps
Channel(s) : 2 channels
Channel positions : L R
Sampling rate : 44.1 KHz
Resolution : 16 bits
Stream size : 2.75 MiB (20%)
Title : (C) 2007 Google Inc. v08.13.2007.
Encoded date : UTC 2009-10-14 06:41:32
Tagged date : UTC 2009-10-14 06:41:33




related torrents

Torrent name

health leech seeds Size

Jind Mahi Master Saleem

0 0 53.23 MB 0

Master Saleem Jind Mahi

0 0 53.00 MB 0
 


comments (0)

Main Menu