Big Brother

PBB S03E49 Double Up112109 [immortalseed]

  • Download 5x Faster
  • Download torrent
  • Direct Download
  • Rate this torrent +  |  -
PBB S03E49 Double Up112109 [immortalseed]

Download FREE And Anonymously


Torrent info

Name:PBB S03E49 Double Up112109 [immortalseed]

Total Size: 429.35 MB

Magnet: Magnet Link

Seeds: 0

Leechers: 0

Stream: Watch Full Movie @ Movie4u

Last Updated: 2017-09-30 10:34:01 (Update Now)

Torrent added: 2009-11-22 04:05:16



CyberGhost VPN For Torrents

Torrent Files List


PBB S03E49 Double Up 112209.avi (Size: 429.35 MB) (Files: 4)

 PBB S03E49 Double Up 112209.avi

425.43 MB

 SAMPLE.avi

3.92 MB

 PBB S03E49 Double up 112109.NFO

3.59 KB

 immortalseed.txt

0.05 KB
 

tracker

leech seeds
 

Torrent description

Episode 49 I November 21, 2009

Riza Mae Patria is the latest evictee in Pinoy Big Brother Double Up

Riza Mae Patria is the latest evictee in Pinoy Big Brother Double Up.
The bubbly lady from Siquijor got the lowest number of text votes (7.40%)
among fellow nominees eviction Carol Batay (69.51%), Rob Stumvoll (11.74%),
and Yuri Okawa (11.35%). After celebrating their much awaited victory in the
weekly task, House B lamented the exit of their good friend Patria. On the other
hand, House A cheered that their little sister Carol had one more week of
stay with them.

Patria is said to be House B’s answer to the talkative and funny Melisa Cantiveros
of House A. Patria left her family and friends in Siquijor to join PBB in hopes of
winning the top prize. Despite her loss, Patria left the house rich in experiences
and new friends. She was fetched from the house by her best friend and was welcomed
by other ex-housemates. Patria said that she will miss everything inside Kuya’s house,
but she remains positive that things will still turn out for the best for her here in
the outside world.

Tomorrow, catch the live nomination night as a bunch of housemates will be in danger
of getting evicted. Also find out what is this ‘big storm’ that is threatening to
change the lives of Kuya’s housemates. All that and more on Pinoy Big Brother Double Up
tomorrow night. Log on to www.pinoybigbrother.com and http://pinoybigbrother.multiply.com
for more updates and exclusives.

General
Complete name : PBB S03E49 Double Up 112209.avi
Format : AVI
Format/Info : Audio Video Interleave
File size : 425 MiB
Duration : 53mn 44s
Overall bit rate : 1 107 Kbps
Writing application : MEncoder Sherpya-SVN-r29319-4.5.0
Writing library : MPlayer

Video
ID : 0
Format : AVC
Format/Info : Advanced Video Codec
Format profile : [email protected]
Format settings, CABAC : Yes
Format settings, ReFrames : 6 frames
Codec ID : h264
Duration : 53mn 43s
Bit rate : 965 Kbps
Width : 592 pixels
Height : 432 pixels
Display aspect ratio : 4:3
Frame rate : 29.970 fps
Resolution : 24 bits
Colorimetry : 4:2:0
Scan type : Progressive
Bits/(Pixel*Frame) : 0.126
Stream size : 371 MiB (87%)
Writing library : x264 core 67 r1158M a2c01c1


Audio
ID : 1
Format : MPEG Audio
Format version : Version 1
Format profile : Layer 3
Format settings, Mode : Joint stereo / MS Stereo
Codec ID : 55
Codec ID/Hint : MP3
Duration : 53mn 44s
Bit rate mode : Constant
Bit rate : 128 Kbps
Channel(s) : 2 channels
Sampling rate : 48.0 KHz
Resolution : 16 bits
Video delay : 67ms
Stream size : 49.2 MiB (12%)
Alignment : Aligned on interleaves
Interleave, duration : 24 ms (0.72 video frame)
Interleave, preload duration : 504 ms

related torrents

Torrent name

health leech seeds Size
 


comments (0)

Main Menu