Automotive/Cars

Clarkson Duel 2009 XviD [Movie Torrentz]

  • Download 5x Faster
  • Download torrent
  • Direct Download
  • Rate this torrent +  |  -
Clarkson Duel 2009 XviD [Movie Torrentz]

Download FREE And Anonymously


Torrent info

Name:Clarkson Duel 2009 XviD [Movie Torrentz]

Total Size: 708.45 MB

Magnet: Magnet Link

Seeds: 0

Leechers: 0

Stream: Watch Full Movie @ Movie4u

Last Updated: 2018-03-16 20:52:07 (Update Now)

Torrent added: 2009-11-03 12:02:23



CyberGhost VPN For Torrents

Torrent Files List


Clarkson.Duel.2009.XviD.[Movie-Torrentz].avi (Size: 708.45 MB) (Files: 3)

 Clarkson.Duel.2009.XviD.[Movie-Torrentz].avi

708.45 MB

 Movie-Torrentz.url

0.11 KB

 Read Me 1st.[Movie-Torrentz].txt

0.76 KB
 

tracker

leech seeds
 

Torrent description

Format : AVI
Format/Info : Audio Video Interleave
File size : 708 MiB
Duration : 1h 17mn
Overall bit rate : 1 274 Kbps
Writing application : VirtualDubMod 1.5.10.2 (build 2540/release)
Writing library : VirtualDubMod build 2540/release

Video
Format : MPEG-4 Visual
Format profile : Streaming [email protected]
Format settings, BVOP : Yes
Format settings, QPel : No
Format settings, GMC : No warppoints
Format settings, Matrix : Default
Muxing mode : Packet Bitstream
Codec ID : XVID
Codec ID/Hint : XviD
Duration : 1h 17mn
Bit rate : 989 Kbps
Width : 640 pixels
Height : 352 pixels
Display aspect ratio : 16/9
Frame rate : 25.000 fps
Resolution : 24 bits
Colorimetry : 4:2:0
Scan type : Progressive
Bits/(Pixel*Frame) : 0.176
Stream size : 550 MiB (78%)
Writing library : XviD 50

Audio #1
Format : MPEG Audio
Format version : Version 1
Format profile : Layer 3
Codec ID : 55
Codec ID/Hint : MP3
Duration : 1h 17mn
Bit rate mode : Variable
Bit rate : 130 Kbps
Nominal bit rate : 128 Kbps
Channel(s) : 2 channels
Sampling rate : 48.0 KHz
Resolution : 16 bits
Stream size : 72.6 MiB (10%)
Alignment : Aligned on interleaves
Interleave, duration : 24 ms (0.60 video frame)
Interleave, preload duration : 203 ms
Writing library : LAME3.90.
Encoding settings : ABR

Audio #2
Format : MPEG Audio
Format version : Version 1
Format profile : Layer 3
Codec ID : 55
Codec ID/Hint : MP3
Duration : 1h 17mn
Bit rate mode : Variable
Bit rate : 133 Kbps
Nominal bit rate : 128 Kbps
Channel(s) : 2 channels
Sampling rate : 48.0 KHz
Resolution : 16 bits
Stream size : 74.1 MiB (10%)
Alignment : Aligned on interleaves
Interleave, duration : 24 ms (0.60 video frame)
Interleave, preload duration : 233 ms
Writing library : LAME3.90.
Encoding settings : ABR

Second audio sound track also included (Engine sounds).


Welcome to my new DVD, Duel - it's all about challenges and some big questions. Which car makes the most smoke while going sideways - a Lamborghini Murcielago SuperVeloce or a Vauxhall VXR8 Bathurst S? What is best at drifting? - the Jaguar XKR, the Lotus Evora, Audi's R8 V10 or BMW's M3? To find out, I globe-trot from sun-drenched Spain to Silverstone via Oxfordshire and Swindon.
There is serious science too. Can The Stig drift a car while wearing wellies? Can I corner in flippers? Can Formula One ace Anthony Davidson slide a car - in ice skates? Who is the best at off road driving? - Newswoman Kate Silverton, rugby's Matt Dawson, singer Ronan Keating - or me? Which is fastest - a car or a man? Find out as the Aston Martin v12 Vantage sprints against flying rugby winger Tom Varndell in a 100 metre drag race.

And at last, The Stig goes head to helmet against The Tiff. The white-suited racing driver and I join forces against Vicki Butler-Henderson and Tiff Needell. There's carnage in an auto-test and I push the 190mph Aston Martin DBS Volante to the limit against Vicki in a �150,000 Ferrari California. I also pick a Ford Focus RS for a road race against his'Stigness in a Lamborghini Gallardo Spyder. Who will win?

There's more. What will hit the ground first from 150 feet up a penny or a Ford Scorpio? Can the Stig ride a bicycle? And can a man with a rubbish car get it home using no fuel at all. just a catapult. Meanwhile, there's a terrible accident with a Morris Marina and a piano and everything else explodes including Ronan Keating.

related torrents

Torrent name

health leech seeds Size
 


comments (0)

Main Menu