Big Brother

PBB S03E29 Double Up The Big Swap 11.01.09 Philippines tvrip.x264 (Tagalog) [tukmol101]

  • Download 5x Faster
  • Download torrent
  • Direct Download
  • Rate this torrent +  |  -

Torrent info

Name:PBB S03E29 Double Up The Big Swap 11.01.09 Philippines tvrip.x264 (Tagalog) [tukmol101]

Total Size: 275.98 MB

Magnet: Magnet Link

Seeds: 0

Leechers: 0

Stream: Watch Full Movie @ Movie4u

Last Updated: 2018-04-15 14:49:43 (Update Now)

Torrent added: 2009-11-01 23:01:52



CyberGhost VPN For Torrents

Torrent Files List


PBB S03E29 The Big Swap.avi (Size: 275.98 MB) (Files: 2)

 PBB S03E29 The Big Swap.avi

275.98 MB

 PBB S03E29.NFO

5.43 KB
 

tracker

leech seeds
 

Torrent description

THE INTRO IS MISSING. I DON'T KNOW HOW MUCH WASN'T RECORDED.
MY PC RESTARTED AUTOMATICALLY AFTER UPDATE.
:(:(:(



Episode 29 November 1, 2009

The Big Swap begins: Cathy lands in Finland as Katlin is welcomed
inside the PBB House

BB Finland, meet Cathy! At 4 a.m., Sunday, which is around 12:30 nn Manila time,
Cathy finally sets foot in Finland. Escorted by none other but PBB's head honcho,
Direk Laurenti Dyogi, she headed to Espoo, the site of Finland's Big Brother house.
She arrived to a near-empty city, Sunday being a holiday of sorts. Cathy breathed
in the cool air as she sent her warm greetings from beside the train tracks.
Before even stepping inside the Big Brother house, Cathy already had a challenge
to face. As fate would have it, all her luggage was accidentally left behind in
Bangkok, which meant that she would start her first day with literally just the
clothes on her back! How she would deal with this setback, especially with the extreme
cold that comes with the winter season, is just one of the things to watch out for.

Meanwhile, back in Manila, Katlin was also welcomed into the PBB House. The blonde
housemate from BB Finland was ushered into the confession room for her first exchange
with Kuya. After a short welcome speech, Kuya presented Katlin with the two
cross-stitch artworks of the two houses. Though unfinished, the results of this
week's task had the traditional "Mabuhay!" greeting stitched on them. For her first
task, Katlin was made to pick which among the two she liked better. Little did she
know that her choice would decide two major things: which house she would belong to
and which team would win 100% of the week's budget. She looked at both works briefly,
and decided to go with House A's project, primarily because of the colorful threads.
Kuya then tasked her to carry the chosen cross-stitch into House A, her temporary
residence. Katlin was welcomed with shouts, cheers and hugs by the housemates. Not only
were they ecstatic to play host to Katlin, but her entry signified that at long last,
their team achieved what seemed to be forever sliding out of their grasp: winning the
weekly task! For the new House A team, they regained more than 100% weekly budget.
They regained pride and the drive to get back in the game. Katlin, the one who made it
possible, was then led to the pool area, which they decorated to simulate the feel of a
beach party. To welcome her, the housemates presented her with white roses and surrounded
her VIP seat with candles. Will she feel as welcome in the coming days, or would she wish
herself back in the the familiar BB Finland?

What surprises are in store for the swapped housemates? Will Cathy and Katlin be able
to adjust to their new housemates? How will their new family relate to them? Both have
just entered their temporary homes. Stay tuned and keep updated! Follow their first
few days and join them in their experiences in The Big Swap!

Five housemates are up for eviction this week: Jason, Marielle, Delio, Tom and Patrick.
Who's got your vote? The polls are now open, so don't forget to text in your votes
by keying in BB (housemate's name) and send it to 2331 for Globe, TM, Sun Cellular and
Bayan Wireless Landline or 231 for Smart and Talk n Text. You cam also cast your votes
online via www.pinoybigbrother.com/vote.


General
Complete name : PBB S03E29 The Big Swap.avi
Format : AVI
Format/Info : Audio Video Interleave
File size : 276 MiB
Duration : 35mn 6s
Overall bit rate : 1 099 Kbps
Writing application : MEncoder Sherpya-SVN-r29319-4.5.0
Writing library : MPlayer

Video
ID : 0
Format : AVC
Format/Info : Advanced Video Codec
Format profile : [email protected]
Format settings, CABAC : Yes
Format settings, ReFrames : 6 frames
Codec ID : h264
Duration : 35mn 6s
Bit rate : 957 Kbps
Width : 592 pixels
Height : 432 pixels
Display aspect ratio : 4:3
Frame rate : 29.970 fps
Resolution : 24 bits
Colorimetry : 4:2:0
Scan type : Progressive
Bits/(Pixel*Frame) : 0.125
Stream size : 240 MiB (87%)
Writing library : x264 core 67 r1158M a2c01c1


Audio
ID : 1
Format : MPEG Audio
Format version : Version 1
Format profile : Layer 3
Format settings, Mode : Joint stereo / MS Stereo
Codec ID : 55
Codec ID/Hint : MP3
Duration : 35mn 6s
Bit rate mode : Constant
Bit rate : 128 Kbps
Channel(s) : 2 channels
Sampling rate : 48.0 KHz
Resolution : 16 bits
Video delay : 67ms
Stream size : 32.1 MiB (12%)
Alignment : Aligned on interleaves
Interleave, duration : 24 ms (0.72 video frame)
Interleave, preload duration : 504 ms

related torrents

Torrent name

health leech seeds Size
 


comments (0)

Main Menu