Big Brother

PBB S03E28 Double Up 3rd Nomination Night 10 31 09 tvrip x264 [tukmol101]

  • Download 5x Faster
  • Download torrent
  • Direct Download
  • Rate this torrent +  |  -

Torrent info

Name:PBB S03E28 Double Up 3rd Nomination Night 10 31 09 tvrip x264 [tukmol101]

Total Size: 417.75 MB

Magnet: Magnet Link

Seeds: 0

Leechers: 0

Stream: Watch Full Movie @ Movie4u

Last Updated: 2018-04-15 15:04:51 (Update Now)

Torrent added: 2009-10-31 23:04:01



CyberGhost VPN For Torrents

Torrent Files List


PBB S03E28 Double Up 3rd Nomination Night.nfo (Size: 417.75 MB) (Files: 2)

 PBB S03E28 Double Up 3rd Nomination Night.nfo

3.84 KB

 PBB S03E28 Double Up 3rd Nomination Night.avi

417.75 MB
 

tracker

leech seeds
 

Torrent description

Episode 28 October 31, 2009

Delio, Mariel, Jason, Tom and Patrick make up this week's PBB Double Up Nominees

Last October 28, Kuya halted voting for the housemate nominees after deciding
to evict Yhel from his house after violating a major rule regarding nominations.
From October 25 to October 28, the nominations received a total of 46,268 votes.
ABS-CBN's share from the revenues, which amounted to P24,880 will be donated to
Sagip Kapamilya to help Typhoon Ondoy and Peping's victims.

After Kuya's scare last night because of Halloween, the housemates have to once
again put on a brave face and face their fear of the nomination announcement.
Three nominees came from House A and two from House B. In House A, Mariel got
nominated (five votes) because of being too sensitive. The housemates also
nominated Patrick (four votes) because of his being too mature and serious at times.
Tom, on the other hand, got nominated (five votes) because of being too insensitive.
House B on the other hand nominated Delio (ten votes) because of his stubbornness and
Jason (seven votes) for not being productive on their task.

The polls are now open to receive your votes! Who do you think deserves another shot
within the house? Make your vote count by texting BB and sending it to 2331 for Globe, TM, Sun Cellular and Bayan Wireless Landline users or 231 for Smart and Talk n Text subscribers. You may also cast your vote online by logging on to www.pinoybigbrother.com/vote.

Meanwhile Cathy is on her way to Finland. Will she make Kuya proud? Tune in to
Pinoy Big Brother Update, Uber, Primetime and Uplate for more updates on her
fifteen hour journey to Europe and on BB Finland’s Katlin’s entry into the PBB House.

General
Complete name : PBB S03E28 Double Up 3rd Nomination Night.avi
Format : AVI
Format/Info : Audio Video Interleave
File size : 418 MiB
Duration : 53mn 35s
Overall bit rate : 1 090 Kbps
Writing application : MEncoder Sherpya-SVN-r29319-4.5.0
Writing library : MPlayer

Video
ID : 0
Format : AVC
Format/Info : Advanced Video Codec
Format profile : [email protected]
Format settings, CABAC : Yes
Format settings, ReFrames : 6 frames
Codec ID : h264
Duration : 53mn 35s
Bit rate : 948 Kbps
Width : 592 pixels
Height : 432 pixels
Display aspect ratio : 4:3
Frame rate : 29.970 fps
Resolution : 24 bits
Colorimetry : 4:2:0
Scan type : Progressive
Bits/(Pixel*Frame) : 0.124
Stream size : 363 MiB (87%)
Writing library : x264 core 67 r1158M a2c01c1
Audio
ID : 1
Format : MPEG Audio
Format version : Version 1
Format profile : Layer 3
Format settings, Mode : Joint stereo / MS Stereo
Codec ID : 55
Codec ID/Hint : MP3
Duration : 53mn 35s
Bit rate mode : Constant
Bit rate : 128 Kbps
Channel(s) : 2 channels
Sampling rate : 48.0 KHz
Resolution : 16 bits
Video delay : 67ms
Stream size : 49.1 MiB (12%)
Alignment : Aligned on interleaves
Interleave, duration : 24 ms (0.72 video frame)
Interleave, preload duration : 504 ms




related torrents

Torrent name

health leech seeds Size
 


comments (0)

Main Menu