Big Brother

PBB Double Up S03E27 10 30 09 Philippines tvrip x264 (Tagalog0 [tukmol101]

  • Download 5x Faster
  • Download torrent
  • Direct Download
  • Rate this torrent +  |  -

Torrent info

Name:PBB Double Up S03E27 10 30 09 Philippines tvrip x264 (Tagalog0 [tukmol101]

Total Size: 318.99 MB

Magnet: Magnet Link

Seeds: 0

Leechers: 0

Stream: Watch Full Movie @ Movie4u

Last Updated: 2018-04-15 15:06:57 (Update Now)

Torrent added: 2009-10-31 03:02:18



CyberGhost VPN For Torrents

Torrent Files List


PBBDU S03E27.NFO (Size: 318.99 MB) (Files: 2)

 PBBDU S03E27.NFO

3.90 KB

 PBBDU S03E27.avi

318.99 MB
 

tracker

leech seeds
 

Torrent description

Episode 27 October 30, 2009

Big Brother holds a pageant inside the house

Based on the personal commercials they have submitted, the Big Brother
executives from Finland were able to pull out 10 Big Swap finalists from
Pinoy Big Brother Double Up housemates. The lucky contenders for the said
big event are no other than Rica, Yuri, Paul Jake, Hermes, Cathy, Marielle,
Tibo, Tom, Patria and Melissa. Among the ten, only one will be chosen to take
the big trip; and in order to conclude the match, all of them are required to
take part in the final qualifying stage—a mini-pageant entitled "The Search for
Pinoy Big Brother Swap Representative."

Just like any other pageant, all the ten finalists strut their ways down the runway
to formally introduce themselves; and after that, they gladly put their swimsuits on
to flaunt their truly voluptuous bodies. Aside from their physical attributes, they
also get a chance to demonstrate their remarkable talents to the Finnish housemates
as they individually take the stage to show off what they have.

From ten, the candidates are instantly cut to 5; and the said top 5 housemates are
Melissa, Hermes, Patria, Tibo and Cathy. In order to battle for the Top 3 positions,
the said housemates face the very much awaited question and answer portion. And for
the said phase, each housemate is given a Filipino proverb which they are required to
elaborate in English.

Surprisingly, out of the top 5, Hermes Melissa and Cathy stand out to take the higher
three slots. And given the Finnish Big Brother executives’ choice, it has been decided
that the nurse from Bohol, Cathy, will be the one representing our country in Big Brother
Finland any time soon.

For a chance to welcome the visiting Finnish housemate Katlin, and to witness the much
awaited Big Swap, catch Pinoy Big Brother Double Up tomorrow, right after MMK.

General
Complete name : PBBDU S03E27.avi
Format : AVI
Format/Info : Audio Video Interleave
File size : 319 MiB
Duration : 36mn 12s
Overall bit rate : 1 232 Kbps
Writing application : MEncoder Sherpya-SVN-r29319-4.5.0
Writing library : MPlayer

Video
ID : 0
Format : AVC
Format/Info : Advanced Video Codec
Format profile : [email protected]
Format settings, CABAC : Yes
Format settings, ReFrames : 6 frames
Codec ID : h264
Duration : 36mn 12s
Bit rate : 1 090 Kbps
Width : 592 pixels
Height : 432 pixels
Display aspect ratio : 4:3
Frame rate : 29.970 fps
Resolution : 24 bits
Colorimetry : 4:2:0
Scan type : Progressive
Bits/(Pixel*Frame) : 0.142
Stream size : 282 MiB (88%)
Writing library : x264 core 67 r1158M a2c01c1

Audio
ID : 1
Format : MPEG Audio
Format version : Version 1
Format profile : Layer 3
Codec ID : 55
Codec ID/Hint : MP3
Duration : 36mn 12s
Bit rate mode : Constant
Bit rate : 128 Kbps
Channel(s) : 2 channels
Sampling rate : 48.0 KHz
Resolution : 16 bits
Video delay : 67ms
Stream size : 33.1 MiB (10%)
Alignment : Aligned on interleaves
Interleave, duration : 24 ms (0.72 video frame)
Interleave, preload duration : 504 ms

related torrents

Torrent name

health leech seeds Size
 


comments (0)

Main Menu