Big Brother

PBB Double Up S03E26 10 29 09 Philippines tvrip x264 (Tagalog) [tukmol101

  • Download 5x Faster
  • Download torrent
  • Direct Download
  • Rate this torrent +  |  -

Torrent info

Name:PBB Double Up S03E26 10 29 09 Philippines tvrip x264 (Tagalog) [tukmol101

Total Size: 275.88 MB

Magnet: Magnet Link

Seeds: 0

Leechers: 0

Stream: Watch Full Movie @ Movie4u

Last Updated: 2018-04-15 15:09:03 (Update Now)

Torrent added: 2009-10-30 03:01:38



CyberGhost VPN For Torrents

Torrent Files List


PBBDU S03E26.avi (Size: 275.88 MB) (Files: 2)

 PBBDU S03E26.avi

275.88 MB

 PBBDU S03E26.nfo

3.31 KB
 

tracker

leech seeds
 

Torrent description

Episode 26 October 29, 2009

One lucky housemate is bound for Big Brother's House in Finland

In line with the upcoming Big Swap, Big Brother engages all his housemates to a
somewhat practice-interview. Incidentally, he had hired con-artists to play the
roles of Big Brother executive producers abroad to perform the said duty. Basically
clueless that it is a mere mock interview, all the housemates eagerly try their best to
impress the so called executives not only with their English language proficiency, but also
with their practical reasoning skills.

Aside from the said interview, Big Brother also asks the housemates to prepare individual
short-commercials that will showcase their exceptional qualities; and this time, it is for
"the real" Big Brother executives from a foreign country. As to the task, all the housemates pour
out all their creative juices to come up with the most alluring advertisements as possible in
exchange for a chance to pay one of Big Brother’s Houses outside the country a visit.

Apparently, one lucky housemate is bound to spend some time in Big Brother’s House at Finland.
Now the question remains: "who could it possibly be?" Catch the answer tomorrow on
Pinoy Big Brother Double Up Primetime Edition, right after Dahil may Isang Ikaw.

General
Complete name : PBBDU S03E26.avi
Format : AVI
Format/Info : Audio Video Interleave
File size : 276 MiB
Duration : 34mn 33s
Overall bit rate : 1 116 Kbps
Writing application : MEncoder Sherpya-SVN-r29319-4.5.0
Writing library : MPlayer

Video
ID : 0
Format : AVC
Format/Info : Advanced Video Codec
Format profile : [email protected]
Format settings, CABAC : Yes
Format settings, ReFrames : 6 frames
Codec ID : h264
Duration : 34mn 33s
Bit rate : 974 Kbps
Width : 592 pixels
Height : 432 pixels
Display aspect ratio : 4:3
Frame rate : 29.970 fps
Resolution : 24 bits
Colorimetry : 4:2:0
Scan type : Progressive
Bits/(Pixel*Frame) : 0.127
Stream size : 241 MiB (87%)
Writing library : x264 core 67 r1158M a2c01c1


Audio
ID : 1
Format : MPEG Audio
Format version : Version 1
Format profile : Layer 3
Codec ID : 55
Codec ID/Hint : MP3
Duration : 34mn 33s
Bit rate mode : Constant
Bit rate : 128 Kbps
Channel(s) : 2 channels
Sampling rate : 48.0 KHz
Resolution : 16 bits
Video delay : 67ms
Stream size : 31.6 MiB (11%)
Alignment : Aligned on interleaves
Interleave, duration : 24 ms (0.72 video frame)
Interleave, preload duration : 504 ms

related torrents

Torrent name

health leech seeds Size
 


comments (0)

Main Menu