Future Man Season 1 Episode 4(A Fuel's Errand) | Future Man Season 1 Episode 5(Justice Desserts) | Future Man Season 1 Episode 6(A Blowjob Before ...)

Big Brother

PBB Double Up S03E14 10 17 09 Philippines tvrip (Tagalog) [tukmol101]

  • Download 5x Faster
  • Download torrent
  • Direct Download
  • Rate this torrent +  |  -

Torrent info

Name:PBB Double Up S03E14 10 17 09 Philippines tvrip (Tagalog) [tukmol101]

Total Size: 658.23 MB

Magnet: Magnet Link

Seeds: 0

Leechers: 0

Stream: Watch Full Movie @ Movie4u

Last Updated: 2017-09-30 10:40:38 (Update Now)

Torrent added: 2009-10-17 15:04:40



VPN For Torrents

Torrent Files List


1st Nomination Night.avi (Size: 658.23 MB) (Files: 2)

 1st Nomination Night.avi

658.23 MB

 Read Me.nfo

0.33 KB
 

tracker

leech seeds
 

Torrent description

Episode 14 October 17, 2009
First Nomination Night puts Carol, Jason, Jimson and Princess in hot water
It's the first nomination night for the season! Though it won't be the first time that the housemates will experience a loss, it will be their first to experience a goodbye through peer nomination and popular vote. Try as they might, the reality that this is a competition has started to sink in. From having to nominate a housemate to explaining their choice, each one had a hand in the other’s fate. When push comes to shove, how will each housemate react?

A recap of the week showed the romances that were quickly formed and dissolved within the house. Patria developed a major crush on Hermes, as did Johan with Cathy and Rica with Rob. Jimson and Kat continued to struggle with their marriage. House A won another weekly task, while House B was saved only by Patrick's sacrifice. Housemates gave up a number of their belongings and packed relief goods for the typhoon victims, all of which were distributed by ex-housemates JM, JP, Kenny and Toffi. Several violations were committed, including that of Mariel and Yhel who forgot that no conversation could be hidden.

Due to the gravity of the moment, Toni talked to both houses simultaneously. The nominees were the top two nominees of each house. In each house, one female and one male were nominated for the top two spots. Princess and Jason were the top picks for House A. Quite a number of the housemates found Princess too aggressive and she ended up with 6 points. Jason's lack of effort in reaching out to the rest cost him 7 votes. The nominees for House B were Carol and Jimson. Carol's naivete worked against her and got her 5 points. Jimson’s distance from the others and the fact that half of a couple will still remain cost him 10 points.

Princess and Jason were quick to accept their fate, and did not express too much despite their nomination. Princess just made a shout-out to her friends to give her a helping hand. True to form, Jason leaves his fate up to the viewers with his ''bahala na'' attitude. Carol and Jimson were more expressive, both being moved to tears. Carol broke down, yet managed to explain that she still had something to prove inside the house. Jimson tried his best to control himself as he asks for support. He believes more time within the house would strengthen his relationship with his wife.

Now that nominations are out in the open, will the housemates be able to relate to each other in the same way again? Friendships may become alliances, idle talk may turn to rumor-mongering as the issue of survival becomes apparent. Who among the four housemates will get your vote? CAROL, JASON, JIMSON and PRINCESS are all in danger of getting shipped out of the house.

Who deserves another week in the house? It's your call, Kapamilya. Voting is now open! Just text BB and send it to 2331 for Globe, TM, Sun Cellular and Bayan Wireless Landline or 231 for Smart and Talk N Text. You can also cast your vote online by logging in to doubleup.pinoybigbrother.com/vote.

General
Complete name : 1st Nomination Night.avi
Format : AVI
Format/Info : Audio Video Interleave
File size : 658 MiB
Duration : 1h 6mn
Overall bit rate : 1 388 Kbps
Writing application : VirtualDubMod 1.5.4.1 (build 2178/release)
Writing library : VirtualDubMod build 2178/release

Video
ID : 0
Format : MPEG-4 Visual
Format profile : [email protected]
Format settings, BVOP : Yes
Format settings, QPel : No
Format settings, GMC : No warppoints
Format settings, Matrix : Default (H.263)
Muxing mode : Packed bitstream
Codec ID : XVID
Codec ID/Hint : XviD
Duration : 1h 6mn
Bit rate : 1 267 Kbps
Width : 560 pixels
Height : 416 pixels
Display aspect ratio : 4:3
Frame rate : 29.970 fps
Resolution : 24 bits
Colorimetry : 4:2:0
Scan type : Progressive
Bits/(Pixel*Frame) : 0.181
Stream size : 601 MiB (91%)
Writing library : XviD 1.2.1 (UTC 2008-12-04)

Audio
ID : 1
Format : MPEG Audio
Format version : Version 1
Format profile : Layer 3
Codec ID : 55
Codec ID/Hint : MP3
Duration : 1h 6mn
Bit rate mode : Variable
Bit rate : 107 Kbps
Nominal bit rate : 128 Kbps
Channel(s) : 2 channels
Sampling rate : 48.0 KHz
Resolution : 16 bits
Stream size : 50.8 MiB (8%)
Alignment : Aligned on interleaves
Interleave, duration : 24 ms (0.72 video frame)
Interleave, preload duration : 509 ms
Writing library : LAME3.98r
Encoding settings : -m j -V 4 -q 2 -lowpass 17 --abr 128

related torrents

Torrent name

health leech seeds Size
 


comments (0)

Main Menu

 

script data-cfasync="false" src="//d2ghscazvn398x.cloudfront.net/?cshgd=690275">