Documentary

History Channel Modern Marvels: Nikola Tesla Mad Electricity Dublado x264 avi

  • Download 5x Faster
  • Download torrent
  • Direct Download
  • Rate this torrent +  |  -

Torrent info

Name:History Channel Modern Marvels: Nikola Tesla Mad Electricity Dublado x264 avi

Total Size: 254.82 MB

Magnet: Magnet Link

Seeds: 3

Leechers: 0

Stream: Watch Full Movie @ Movie4u

Last Updated: 0000-00-00 00:00:00 (Update Now)

Torrent added: 2009-10-17 11:13:08



VPN For Torrents

Torrent Files List


History Channel.Modern Marvels - Nikola Tesla - Mad.Electricity - Dublado - x264.avi (Size: 254.82 MB) (Files: 1)

 History Channel.Modern Marvels - Nikola Tesla - Mad.Electricity - Dublado - x264.avi

254.82 MB
 

Announce URL: http://tracker.publicbt.com/announce

Torrent description

General
History Channel - Modern Marvels - Nikola Tesla - Mad Electricity - Dublado - H264.avi [x264 codec]
Format : AVI
Format/Info : Audio Video Interleave
File size : 255 MiB
Duration : 43mn 58s
Overall bit rate : 810 Kbps
Writing library : VirtualDub build 30586/release

Video
ID : 0
Format : AVC
Format/Info : Advanced Video Codec
Format profile : [email protected]
Format settings, CABAC : Yes
Format settings, ReFrames : 2 frames
Codec ID : H264
Duration : 43mn 58s
Bit rate : 607 Kbps
Width : 640 pixels
Height : 352 pixels
Display aspect ratio : 16:9
Frame rate : 29.970 fps
Resolution : 24 bits
Colorimetry : 4:2:0
Scan type : Progressive
Bits/(Pixel*Frame) : 0.090
Stream size : 191 MiB (75%)
Writing library : x264 core 68 r1195bm 5d75a9b


Audio
ID : 1
Format : AC-3
Format/Info : Audio Coding 3
Codec ID : 2000
Duration : 43mn 55s
Bit rate mode : Constant
Bit rate : 192 Kbps
Channel(s) : 2 channels
Channel positions : L R
Sampling rate : 44.1 KHz
Stream size : 60.2 MiB (24%)
Alignment : Aligned on interleaves
Interleave, duration : 35 ms (1.05 video frame)
Interleave, preload duration : 522 ms

related torrents

Torrent name

health leech seeds Size
 


comments (0)

Main Menu