Red Bull Surf and Wake | Watch Girls Trip BRrip French Film | La Forêt

Drama

Sphinx (1981 ) avi

  • Download 5x Faster
  • Download torrent
  • Direct Download
  • Rate this torrent +  |  -
Sphinx (1981 ) avi

Anonymous and Free Direct Download


Torrent info

Name:Sphinx (1981 ) avi

Total Size: 948.63 MB

Magnet: Magnet Link

Seeds: 0

Leechers: 0

Stream: Watch Online @ Movie4u

Last Updated: 2013-02-19 16:39:51 (Update Now)

Torrent added: 2009-10-17 11:03:18



VPN For Torrents

Torrent Files List


Sphinx (1981.).avi (Size: 948.63 MB) (Files: 1)

 Sphinx (1981.).avi

948.63 MB
 

Announce URL:

Torrent description

Sphinx (1981)
http://www.imdb.com/title/tt0083113/
Lesley-Anne Down

**Fullscreen version**

Source : VHSrip

Format : AVI
File size : 949 MiB
Duration : 1h 57mn

Video : Color
Format : MPEG-4 Visual
Format profile : Streaming [email protected]
Format settings, BVOP : Yes
Format settings, QPel : No
Format settings, GMC : No warppoints
Format settings, Matrix : Custom
Codec ID : XVID
Codec ID/Hint : XviD
Duration : 1h 57mn
Bit rate : 936 Kbps
Width : 512 pixels
Height : 384 pixels
Display aspect ratio : 4/3
Frame rate : 29.970 fps
Resolution : 24 bits
Colorimetry : 4:2:0
Scan type : Progressive
Bits/(Pixel*Frame) : 0.159
Stream size : 786 MiB (83%)
Writing library : XviD 1.2.0SMP (UTC 2006-01-08)

Audio : English
Format : MPEG Audio
Format version : Version 1
Format profile : Layer 3
Codec ID : 55
Codec ID/Hint : MP3
Duration : 1h 57mn
Bit rate mode : Variable
Bit rate : 180 Kbps
Nominal bit rate : 192 Kbps
Channel(s) : 2 channels
Sampling rate : 48.0 KHz
Resolution : 16 bits
Stream size : 151 MiB (16%)
Alignment : Aligned on interleaves
Interleave, duration : 24 ms (0.72 video frame)
Interleave, preload duration : 479 ms
Writing library : LAME3.97b
Encoding settings : -m j -V 4 -q 2 -lowpass 18.6 --abr 192

related torrents

Torrent name

health leech seeds Size

Sphinx White Moon (2010)

1 25 43.00 MB 0

Sphinx 1981 DVDRip x264-OP

0 0 788.23 MB 0
 


comments (0)

Main Menu