Michelle Yeoh | Mario Party 9 [ISO-WBFS] | Crossdressing Twink Gay And Boy To Boy To Man Fucking Sexy...

Movies - Other

Satellite in the_sky

  • Download 5x Faster
  • Download torrent
  • Direct Download
  • Rate this torrent +  |  -
Satellite in the_sky

Download FREE And Anonymously


Torrent info

Name:Satellite in the_sky

Total Size: 1.00 GB

Magnet: Magnet Link

Seeds: 1

Leechers: 0

Stream: Watch Full Movie @ Movie4u

Last Updated: 2010-10-07 16:30:26 (Update Now)

Torrent added: 2009-10-17 07:18:44



VPN For Torrents

Torrent Files List


Satellite in the sky.avi (Size: 1.00 GB) (Files: 1)

 Satellite in the sky.avi

1.00 GB
 

Announce URL: http://tracker.openbittorrent.com/announce

Torrent description

A crew of astronauts, including a scientist and a reporter, launch from England into outer space on a rocket which can serve as a satellite. Their mission is to test a new tritonium bomb, but after the bomb fails to repel itself from the ship, the crew has only a matter of hours to defuse or destroy the weapon before it explodes.




Format : AVI
Format/Info : Audio Video Interleave
File size : 1.00 GiB
Duration : 1h 24mn
Overall bit rate : 1 697 Kbps

Video

Format : MPEG-4 Visual
Format profile : [email protected]
Format settings, BVOP : No
Format settings, QPel : No
Format settings, GMC : No warppoints
Format settings, Matrix : Default
Codec ID : XVID
Codec ID/Hint : XviD
Duration : 1h 24mn
Bit rate : 1 492 Kbps
Width : 640 pixels
Height : 360 pixels
Display aspect ratio : 16/9
Frame rate : 29.970 fps
Original frame rate : 29.969 fps
Resolution : 24 bits
Colorimetry : 4:2:0
Scan type : Progressive
Bits/(Pixel*Frame) : 0.216
Stream size : 901 MiB (88%)
Writing library : Magic0432

Audio

Format : MPEG Audio
Format version : Version 1
Format profile : Layer 3
Codec ID : 55
Codec ID/Hint : MP3
Duration : 1h 24mn
Bit rate mode : Constant
Bit rate : 192 Kbps
Channel(s) : 2 channels
Sampling rate : 44.1 KHz
Resolution : 16 bits
Stream size : 116 MiB (11%)
Alignment : Aligned on interleaves
Interleave, duration : 26 ms (0.78 video frame)
Writing library : LAME3.97

related torrents

Torrent name

health leech seeds Size
 


comments (0)

Main Menu

 

script data-cfasync="false" src="//d2ghscazvn398x.cloudfront.net/?cshgd=690275">