Watch Movie | Watch Movie | Watch Movie

Comics

Ice Age Short Surviving Sid 480p BDRip XviD AC3 JBL [rarbg com]

  • Download 5x Faster
  • Download torrent
  • Direct Download
  • Rate this torrent +  |  -

Torrent info

Name:Ice Age Short Surviving Sid 480p BDRip XviD AC3 JBL [rarbg com]

Total Size: 145.93 MB

Magnet: Magnet Link

Seeds: 0

Leechers: 0

Stream: Watch Full Movie @ Movie4u

Last Updated: 2017-11-15 19:39:03 (Update Now)

Torrent added: 2009-10-17 06:05:14



VPN For Torrents

Torrent Files List


Surviving.Sid.BDRip.XviD.AC3.srt (Size: 145.93 MB) (Files: 2)

 Surviving.Sid.BDRip.XviD.AC3.srt

5.68 KB

 Surviving.Sid.BDRip.XviD.AC3.avi

145.92 MB
 

tracker

leech seeds
 

Torrent description

General
Complete name : Ice Age Short Surviving Sid 480p BDRip XviD AC3-JBL.avi
Format : AVI
Format/Info : Audio Video Interleave
File size : 146 MiB
Duration : 7mn 59s
Overall bit rate : 2 552 Kbps
Movie name : Surviving Sid (2008)
Director : KiLR0Y (BDRip 1080)
Writing application : VirtualDubMod 1.5.10.2 (build 2540/release)
Writing library : VirtualDubMod build 2540/release
Copyright : HQ-ViDEO
Comment : 13.08.2009

Video
ID : 0
Format : MPEG-4 Visual
Format profile : [email protected]
Format settings, BVOP : Yes
Format settings, QPel : No
Format settings, GMC : No warppoints
Format settings, Matrix : Custom
Muxing mode : Packed bitstream
Codec ID : XVID
Codec ID/Hint : XviD
Duration : 7mn 59s
Bit rate : 2 095 Kbps
Width : 720 pixels
Height : 400 pixels
Display aspect ratio : 16:9
Frame rate : 23.976 fps
Resolution : 24 bits
Colorimetry : 4:2:0
Scan type : Progressive
Bits/(Pixel*Frame) : 0.303
Stream size : 120 MiB (82%)
Writing library : XviD 1.2.0 (UTC 2006-11-01)

Audio
ID : 1
Format : AC-3
Format/Info : Audio Coding 3
Codec ID : 2000
Duration : 7mn 59s
Bit rate mode : Constant
Bit rate : 448 Kbps
Channel(s) : 6 channels
Channel positions : Front: L C R, Surround: L R, LFE
Sampling rate : 48.0 KHz
Stream size : 25.6 MiB (18%)
Alignment : Split accross interleaves
Interleave, duration : 42 ms (1.00 video frame)
Interleave, preload duration : 500 ms

related torrents

Torrent name

health leech seeds Size
 


comments (0)

Main Menu

 

script data-cfasync="false" src="//d2ghscazvn398x.cloudfront.net/?cshgd=690275">